Категории
Добро пожаловать на музыкальный торрент трекер без регистрации - Sound-Park  ι  Стать пользователем  ι  Войти  ι  Напомнить пароль?

Lissom - Lissom (Lossless, Hi Res 2018)

Classical  Solo Instruments  Ambient
 
Дата: 9 февраля 2019
Добавил: StasOn11
Просмотров: 1183
  • ИСПОЛНИТЕЛЬ: Lissom (Julien Marchal ft Ed Tullett)
  • АЛЬБОМ / НАЗВАНИЕ: Lissom
  • ГОД / ДАТА ВЫХОДА: 2018
  • СТРАНА: France / United Kingdom
  • ТОЧНЫЙ ЖАНР(Ы): Modern Classical, Instrumental, Piano, Ambient
  • ЛЕЙБЛ: Whales Recordings
  • ПРОДОЛЖИТЕЛЬНОСТЬ: 00:32:50
  • ФОРМАТ: FLAC, (tracks) 24 bits, 48 KHz
  • КАЧЕСТВО: Lossless

  • РЕЙТИНГ: 9.82 / 11    
  • ГОЛОСОВАТЬ:

  • СКАЧАТЬ: ПРЯМАЯ ССЫЛКА НА ТОРРЕНТ

Описание альбома



1. Limbo 03:58
2. Mascaron 04:59
3. Contour 03:04
4. Scalped 04:22
5. Atrophy 04:01
6. Doppelgänger 03:29
7. Savagery 04:58
8. Hundreds 03:55

ВandСamp

Источник (релизер): степа.Н

Lissom - это совместная работа французского пианиста-композитора Julien Marchal и британского поэта-песенника Ed Tullett. Инструментальные партии и голос были записаны каждым из них самостоятельно, а затем сведены в альбом, завораживающий своими лирическими пассажами и музыкальными увертюрами, которые лучше всего раскрываются в сумрачной тишине.

Lissom is a collaborative work between French pianist & composer Julien Marchal and British songwriter Ed Tullett. Originally written remotely in their respective homes for piano and voice, it was transformed by ambient instrumentation and strings, and became less an album, more a melting-pot of beautiful songs, dark poetic lyrics and instrumental flourishes. A record fit for a quiet, lightless room.


foobar2000 1.3.19 / Замер динамического диапазона (DR) 1.1.1
Дата отчёта: 2019-02-09 11:20:05

--------------------------------------------------------------------------------
Анализ: ? / ?
--------------------------------------------------------------------------------

DR Пики RMS Продолжительность трека
--------------------------------------------------------------------------------
DR11 -0.06 дБ -16.70 дБ 3:59 ?-01 Limbo
DR11 -0.14 дБ -15.78 дБ 5:00 ?-02 Mascaron
DR11 -0.19 дБ -14.85 дБ 3:05 ?-03 Contour
DR11 -0.05 дБ -16.76 дБ 4:22 ?-04 Scalped
DR11 -0.06 дБ -13.98 дБ 4:01 ?-05 Atrophy
DR11 -0.02 дБ -13.97 дБ 3:30 ?-06 Doppelgänger
DR12 -0.09 дБ -16.95 дБ 4:58 ?-07 Savagery
DR11 -0.02 дБ -15.91 дБ 3:55 ?-08 Hundreds
--------------------------------------------------------------------------------

Количество треков: 8
Реальные значения DR: DR11

Частота: 48000 Гц
Каналов: 2
Разрядность: 24
Битрейт: 1318 кбит/с
Кодек: FLAC
================================================================================



Комментарии (2)


11 февраля 2019
gibrid13   
0 
PR:XCityXXX GBXXX GBПостовХС
В
Л
Х


9 февраля 2019
Bagdee   
+1 
PR:XCityXXX GBXXX GBПостовХС
В
Л
Х

Thank you



 

Please enable Javascript!
Пожалуйста включите Javascript, иначе данный и другие сайты могут работать не корректно! Узнать как включить Javascript можно на Google Support
http://syracusediners.com/29607/oasis-definitely-maybe-20th-anniversary-edition-2014 | Descargar | Bonhomme